ВИДЕО-КУРСЫ

{jcomments on}

заработай на сайте

Принимаем:

 

visa master card

rbkmoney

paypal

webmoneyz-payment

Calvin Klein OutletCalvin Klein Underwear

Большой объем фильма

Dmitry 84 2011.08.02 16:48 5 0

 

Здравствуйте Сергей. Подскажите пожалуйста. Создаю фильм на Adobe premier pro 2. Битрейт выставлен 8000 (как вы и советовали), постоянный. Камера с HDD 720*576 снимает в mpeg 2. Объем 17 минутного фильма равен 1,7гб., 21 минутного - 2,1 гб. Это так и должно быть или все же многовато? Если уменьшить битрейт, то качество упадет, пробывал. Подскажите может что то можно сделать, а то уж больно много весят фильмы. Раньше работал на Ulead, фильмы меньше весили с этим же битрейтом. Заранее Вам благодарен. Жду ответа.


 

Понравилось? Поделитесь с друзьями в социальных сетях:


  • 0 maestroXXI 2011.08.02 20:18
    Дп простит меня Панферов, а каким это кодеком выводите? Битрейт битрейтом, а вот параметры выведенного видео из Премьеры длительность фрагмента 8 минут:
    Формат : MPEG-PS
    Размер файла : 283 Мбайт
    Продолжительность : 7 м. 40 с.
    Общий поток : 5153 Кбит/сек

    Видео
    Идентификатор : 224 (0xE0)
    Формат : MPEG Video
    Версия формата : Version 2
    Профиль формата : Main@Main
    Параметр BVOP формата : Да
    Параметр матрицы формата : По умолчанию
    Параметры GOP формата : M=3, N=12
    Продолжительность : 7 м. 40 с.
    Вид битрейта : Переменный
    Битрейт : 4826 Кбит/сек
    Номинальный битрейт : 6000 Кбит/сек
    Ширина : 720 пикс.
    Высота : 576 пикс.
    Соотношение сторон : 16:9
    Частота кадров : 25,000 кадр/сек
    Стандарт вещания : PAL
    Цветовое пространство : YUV
    Подвыборка цветности : 4:2:0
    Битовая глубина : 8 бит
    Тип развёртки : Прогрессивная
    Метод сжатия : С потерями
    Бит/(Пиксели*Кадры) : 0.465
    Размер потока : 265 Мбайт (94%)

    Аудио
    Идентификатор : 192 (0xC0)
    Формат : MPEG Audio
    Версия формата : Version 1
    Профиль формата : Layer 2
    Продолжительность : 7 м. 40 с.
    Вид битрейта : Постоянный
    Битрейт : 224 Кбит/сек
    Каналы : 2 канала
    Частота : 48,0 КГц
    Метод сжатия : С потерями
    Задержка видео : -80 мс.
    Размер потока : 12,3 Мбайт (4%)

    ...... и качество оригинала
    Второй фрагмент длительность 1 час 5 минут размер 2,5 Гига
    Для большей ясности киньте по-возможности параметры Вашего видео, а в слепую кто ж скажет
    Ответить
    • 0 Dmitry 84 2011.08.03 06:47
      У меня стоит плагин для работы с mpeg 2 форматом,называеться main concept pro coder, его кодеком и обрабатываеться видео. Вот параметры моего видео с камеры:
      720*576
      Скорость передачи данных 9100кб/с
      Общая скорость потока 9356 кб/с
      Частота кадров 25 кад/с
      Формат mpeg 2, Старшее поле первым.

      Вроде все, что касаеться видео. Спасибо Вам за помощь. Просто я в адобе новичок, раньше работал на ulead, хочу научиться на адобе работать. Главное с настройками разобраться!
      Или Вам написать параметры видео, непосредственно перед обработкой и выводом фильма?
      Ответить
  • 0 Dmitry 84 2011.08.03 08:01
    Спасибо
    Ответить