ВИДЕО-КУРСЫ

заработай на сайте

Принимаем:

 

visa master card

rbkmoney

paypal

webmoneyz-payment

Calvin Klein OutletCalvin Klein Underwear

Edius Pro



Постигаем видеомонтаж в программе Edius Pro любой версии

 
карма

3.53

21 место
 

Вы еще не состоите в сообществе? Присоединяйтесь сейчас!:

В отличие от вас, члены сообщества могут:

  • Читать скрытые топики
  • Создавать новые топики
  • Комментировать топики
  • Приглашать своих друзей в сообщество

Вы можете стать участником этого сообщества нажав "Вступить сейчас!", справа от этой надписи

 

nanabПонижение качества после просчета.

nanab 2015.06.21 11:33 4 0

 

Здравствуйте уважаемые члены сообщества.

Видеофайл захвачен в Adobe Premiere pro cs4. Формат DV-AVI. Установлена версия Edius 5.51 Сделал в нем цветокоррекцию - все получилось хорошо. Просчитал файл двумя способами - Mpeg (Elementary Stream) и DVD - Video через Carbon Coder прямо из Edius. Получившийся файл почему-то стал тусклым,блеклым, цвета бледные. Понизилась насыщенность,контрастность. Отчего это,и как это можно исправить?

С уважением,Сергей.

 

 


 

Понравилось? Поделитесь с друзьями в социальных сетях:


  • 0 panferoff 2015.06.23 07:44
    Странная ситуация. Напишите подробно все параметры и настройки выводимого файла. Возможно, кто-нибудь подтянется из специалистов по Эдиусу и что-нибудь посоветует.
    Ответить
    • Не доступно nanab 2015.07.04 15:52
      Файл захвачен Adobe Premiere CS4. Формат DV-AVI. В Edius использовал Color Balance,White Balance. Выводил в MPEG как написано выше.
      Данные Файлазахваченного)
      C:\Documents and Settings\Sergey\Мои документы\Adobe\Premiere Pro\4.0\Untitled Clip 01.avi
      General
      Complete name : C:\Documents and Settings\Sergey\Мои документы\Adobe\Premiere Pro\4.0\Untitled Clip 01.avi
      Format : AVI
      Format/Info : Audio Video Interleave
      Commercial name : DV
      Format profile : OpenDML
      File size : 20.7 GiB
      Duration : 1h 37mn
      Overall bit rate mode : Constant
      Overall bit rate : 30.3 Mbps
      Video #0
      ID : 0
      Format : DV
      Codec ID : dvsd
      Codec ID/Hint : Sony
      Duration : 1h 37mn
      Bit rate mode : Constant
      Bit rate : 24.4 Mbps
      Encoded bit rate : 28.8 Mbps
      Width : 720 pixels
      Height : 576 pixels
      Display aspect ratio : 4:3
      Frame rate mode : Constant
      Frame rate : 25.000 fps
      Standard : PAL
      Color space : YUV
      Chroma subsampling : 4:2:0
      Bit depth : 8 bits
      Scan type : Interlaced
      Scan order : Bottom Field First
      Compression mode : Lossy
      Bits/(Pixel*Frame) : 2.357
      Time code of first frame : 00:00:34:11
      Time code source : Subcode time code
      Stream size : 19.7 GiB (95%)
      Audio #1
      ID : 1
      Format : PCM
      Format settings, Endianness : Little
      Format settings, Sign : Signed
      Codec ID : 1
      Duration : 1h 37mn
      Bit rate mode : Constant
      Bit rate : 1 536 Kbps
      Channel(s) : 2 channels
      Sampling rate : 48.0 KHz
      Bit depth : 16 bits
      Stream size : 1.05 GiB (5%)
      Alignment : Aligned on interleaves
      Interleave, duration : 1000 ms (25.00 video frames)
      Ответить
  • Не доступно Айрат 2015.09.20 20:44
    Цветокоррекция всегда будет дискуссионной темой, потому что у каждого человека, тем более, если он наделён творческой энергией, есть своё особое представление о таких понятиях, как красота и норма, лежащих в основе грамотной цветокоррекции. Видеографы, которые на этой теме, что называется, собаку съели, за долгие годы так и не выработали общих представлений о цветокоррекции, в чём можно убедиться, например, здесь: http://www.videographer.su/forums/index.php?showforum=9 , где они, как ломали копья, так и будут ломать, обсуждая технологии и результаты цветокоррекции.
    Ответить
  • 0 slay_ufa 2015.10.30 12:39
    Ну, видимо, не файл а ДВА файла? Вы же пишите, что двумя способами выводили. Оба файла блеклые? Вы случайно не в NTSC вывели? Блеклость обнаружили в программном плеере? Может настройки насыщенности в плеере понижены? На тайм-лайне сравнивали исходник и просчитаный?
    Ответить